logo
Main Page Sitemap

Speak now tour live dvd


speak now tour live dvd

Gap handling : Appended to previous track.
Used output format : User Defined Encoder.
Wav Peak breaking bad season 5 episode 16 kickass level.8 Extraction speed.5 X Track quality 100.0 Test CRC B67FB4A6 Copy CRC B67FB4A6 Track not present in AccurateRip database ar tonelico qoga artbook Copy OK Track 3 Filename C:Taylor Swift - Speak Now World Tour Live (2011) flac03 - The Story.Read offset correction : 48, overread into Lead-In and Lead-Out :.48.27 6:21., track.Used drive : Optiarc DVD-RW AD-7717H Adapter: 0 ID:.Wav Peak level.8 Extraction speed.9 X Track quality 100.0 Test CRC 06E6D908 Copy CRC 06E6D908 Track not present in AccurateRip database Copy OK Track 5 Filename C:Taylor Swift - Speak Now World Tour Live (2011) flac05 - Ours.
Pre-gap length 0:00:02.00, peak level.8, extraction speed.9.
Fill up missing offset samples with silence : Yes.
Wav Peak level.8 Extraction speed.2 X Track quality.9 Test CRC 705069A6 Copy CRC 705069A6 Track not present in AccurateRip database Copy OK None of the tracks are present in the AccurateRip database No errors occurred End of status report.
Wav Peak level.8 Extraction speed.9 X Track quality 100.0 Test CRC 082F0147 Copy CRC 082F0147 Track not present in AccurateRip database Copy OK Track 8 Filename C:Taylor Swift - Speak Now World Tour Live (2011) flac08 - Speak Now.Wav Peak level.8 Extraction speed.2 X Track quality 100.0 Test CRC 1419A535 Copy CRC 1419A535 Track not present in AccurateRip database Copy OK Track 14 Filename C:Taylor Swift - Speak Now World Tour Live (2011) flac14 - Enchanted.Delete leading and trailing silent blocks :.Wav Peak level.8 Extraction speed.8 X Track quality 100.0 Test CRC D3A88862 Copy CRC D3A88862 Track not present in AccurateRip database Copy OK Track 4 Filename C:Taylor Swift - Speak Now World Tour Live (2011) flac04 - Mean.Command line compressor : C:Program Files (x86)Exact Audio CopyFlacflac.Wav Peak level.7 Extraction speed.4 X Track quality 100.0 Test CRC 93BF03C2 Copy CRC 93BF03C2 Track not present in AccurateRip database Copy OK Track 12 Filename C:Taylor Swift - Speak Now World Tour Live (2011) flac12 - I Want You Back.Wav Peak level.8 Extraction speed.4 X Track quality.9 Test CRC 87E39D71 Copy CRC 87E39D71 Track not present in AccurateRip database Copy OK Track 9 Filename C:Taylor Swift - Speak Now World Tour Live (2011) flac09 - Last Kiss.Filename C:Taylor Swift - Speak Now World Tour Live (2011) flac01 - Sparks Fly.


Sitemap