logo
Main Page Sitemap

Maksim mrvica the piano player


maksim mrvica the piano player

(Nicolai Rubinstein International Piano Competition).
Wav" wave index 01 00:00:00 track 04 audio title "Claudine" isrc gbayc0203609 index 00 03:09:20 file "04 - Claudine.
Wav" wave track 02 audio title "Grieg's Piano Concerto In A situs ebook gratis bahasa indonesia Minor" isrc gbayc0203607 index 01 00:00:00 track 03 audio title "Exodus" isrc gbayc0203608 index 00 04:04:45 file "03 - Exodus.Read offset correction : 667, max retry count : 100, tOC of the extracted.Wav" wave index 01 00:00:00 track 07 audio title "Rhapsody On A Theme Of Paganini" isrc gbayc0203612 index 00 03:37:05 file "07 - Rhapsody On A Theme Of Paganini.Make use of C2 pointers :.Flac CRC32 hash (test run) : 7BD46FC2 CRC32 hash : 7BD46FC2 CRC32 hash (skip zero) : D287C6D1 AccurateRip tell me more keygen signature : 9821EB6F - Track not present in AccurateRip database.Wav" wave index 01 00:00:00 file "12 - Dance Of The Baroness.Flac 10 Maksim Mrvica Cubana.Flac 02 Maksim Mrvica Griegs Piano Concerto In A Minor.Flac 03 Maksim Mrvica Exodus.
Flac CRC32 hash (test run) : E32DD032 CRC32 hash : E32DD032 CRC32 hash (skip zero) : 1A562A6E AccurateRip signature : A7B43D9D - Track not present in AccurateRip database.
Space - Just Blue, enrique Iglesias - Loco (feat.
Wherry) 4:30 Maksim - Claudine (Arr.
Wav" wave track 08 audio title "Hana's Eyes" isrc gbayc0203613 index 01 00:00:00 track 09 audio title "Chopin's Revolutionary Etude In C Minor" isrc gbayc0203614 index 00 04:31:70 file "09 - Chopin's Revolutionary Etude In C Minor.
Flac 07 Maksim Mrvica Rhapsody On A Theme Of Paganini.
Wav" wave index 01 00:00:00 file "08 - Hana's Eyes.
Flac 12 Maksim Mrvica Dance Of The Baroness.Flac CRC32 hash (test run) : 1BC9593D CRC32 hash : 1BC9593D CRC32 hash (skip zero) : FA99057A AccurateRip signature : 6EC0D6FC - Track not present in AccurateRip database.Verification date: 8:54:46 Disc ID: 001cab a-bc11560e CD-Extra data track length 16:21:05.Track Start Length Start sector End sector :00:00 04:25: :25:15 04:06: :31:20 03:10: :41:25 04:30: :11:27 03:40: :51:47 03:37: :29:45 10:07: :37:17 04:32: :09:67 03:52: :02:35 03:09: :12:20 03:32: :44:47 02:51: :36:42 03:28: :36:70 16:21: Track 01 Filename : /Volumes/Seagate FreeAgent Media/Trackers/.upload/Maksim - The Piano.Flac CRC32 hash (test run) : BB913653 CRC32 hash : BB913653 CRC32 hash (skip zero) : BB505D4D AccurateRip signature : 69C9EFB2 - Track not present in AccurateRip database.Wav" wave track 12 audio title "Dance Of The Baroness" isrc gbayc0203617 index 01 00:00:00 track 13 audio title "Cubana Cubana (Bonus Track isrc gbayc0203619 index 00 02:51:30 file "13 - Cubana Cubana (Bonus Track).wav" wave index 01 00:00:00 AccurateRip rip grand piano keyboard image not accurate.Flac CRC32 hash (test run) : 4eaee5CE CRC32 hash : 4eaee5CE CRC32 hash (skip zero) : 1B88CA10 AccurateRip signature : 390D458F - Track not present in AccurateRip database.Allegro molto moderato (Beginning, Arr.Flac CRC32 hash (test run) : DC242217 CRC32 hash : DC242217 CRC32 hash (skip zero) : 124107C0 AccurateRip signature : 02E600F2 - Track not present in AccurateRip database.Wav" wave index 01 00:00:00 track 11 audio title "Croatian Rhapsody" isrc gbayc0203616 index 00 03:08:02 file "11 - Croatian Rhapsody.Wherry) 3:53 Maksim - 12 Etudes,.




Sitemap