logo
Main Page Sitemap

Far cry 3 blood dragon (original game soundtrack)


far cry 3 blood dragon (original game soundtrack)

Flac Size: 9960083 Hash: ikariam hack for wood C04D478D CE06B6406F9D60 Accuracy: -m0 Conclusion: mpeg 100 Signature: file:.
Used drive : HL-DT-stbd-RE BH10LS38 Adapter: 1 ID:.
Wav Pre-gap length 0:00:02.00 Peak level.6 Extraction speed.0 X Track quality.9 Test CRC 93249DB8 Copy CRC 93249DB8 Track not present in AccurateRip database Copy OK Track 20 Filename C:UserschrisDesktopRipsFar Cry 3 - Blood Dragon Sleeping Dragon.Wav" wave index 01 00:00:00 track age of titans serial number 09 audio title "Sloan" performer "Power Glove" index 00 01:03:33 file "09.Power Glove / Far Cry 3: Blood Dragon.Combat III (1:43).Sleeping Dragon (3:01).Wav Pre-gap length 0:00:02.00 Peak level.6 Extraction speed.9 X Track quality.9 Test CRC 5BED46B3 Copy CRC 5BED46B3 Track not present in AccurateRip database Copy OK Track 18 Filename C:UserschrisDesktopRipsFar Cry 3 - Blood Dragon Rex's Escape.Wav" wave index 01 00:00:00 track 06 audio title "Dr Elizabeth Darling" performer "Power Glove" index 00 03:33:53 file "06.
Wav" wave index 01 00:00:00 track 16 audio title "Omega Force" performer "Power Glove" index 00 02:25:00 file "16.
Copyright Elvista Media Solutions Corp., 2017.
Flac farmville game full version pc Size: Hash: Accuracy: -m0 Conclusion: cdda 58 Signature: file:.
Wav" wave index 01 00:00:00 track 25 audio title "Blood Dragon Theme (reprise performer "Power Glove" index 00 03:37:32 file "25.
Make use of C2 pointers :.
Wav Pre-gap length 0:00:02.00 Peak level.6 Extraction speed.4 X Track quality 100.0 Test CRC BDA12106 Copy CRC BDA12106 Track not present in AccurateRip database Copy OK Track 12 Filename C:UserschrisDesktopRipsFar Cry 3 - Blood Dragon Combat.wav Pre-gap length 0:00:02.00 Peak level.6.Wav" wave index 01 00:00:00 track 11 audio title "Blood Scope" performer "Power Glove" index 00 03:30:46 file "11.Death of a Cyborg (2:22).Blood Dragon Theme (reprise).flac Size: Hash: Accuracy: -m0 Conclusion: cdda 99 Signature: *.accurip cuetools log; Date: 23:14:48; Version:.1.4 ctdb tocid: _0zO.Wav Pre-gap length 0:00:02.00 Peak level.6 Extraction speed.3 X Track quality.9 Test CRC B8159E67 Copy CRC B8159E67 Track not present in AccurateRip database Copy OK Track 25 Filename C:UserschrisDesktopRipsFar Cry 3 - Blood Dragon Blood Dragon Theme (reprise).wav Pre-gap length 0:00:02.00 Peak.Wav Pre-gap length 0:00:02.00 Peak level.6 Extraction speed.3 X Track quality 100.0 Test CRC B288BB42 Copy CRC B288BB42 Track not present in AccurateRip database Copy OK Track 22 Filename C:UserschrisDesktopRipsFar Cry 3 - Blood Dragon Cyber Commando.




Sitemap